#TITLE:Rolling Star;
#SUBTITLE:;
#ARTIST:YUI;
#TITLETRANSLIT:;
#SUBTITLETRANSLIT:;
#ARTISTTRANSLIT:YUI;
#CREDIT:;
#BANNER:Rolling Star-bn.png;
#BACKGROUND:Rolling Star-bg.png;
#LYRICSPATH:;
#CDTITLE:pm4cd.png;
#MUSIC:Rolling Star.mp3;
#OFFSET:-0.020;
#SAMPLESTART:75.399;
#SAMPLELENGTH:20.000;
#SELECTABLE:YES;
#BPMS:0.000=161.210;
#STOPS:;
#BGCHANGES:;
// cache tags:
#FIRSTBEAT:0.750;
#LASTBEAT:500.250;
#SONGFILENAME:Songs/Music V.I.P ^_^/Rolling Star/Rolling Star.sm;
#HASMUSIC:1;
#HASBANNER:1;
#MUSICLENGTH:188.638;
// end cache tags

//---------------dance-single - ----------------
#NOTES:
     dance-single:
     :
     Hard:
     15:
     1.000,1.000,1.000,0.196,1.000,1072.000,447.000,37.000,0.000,65.000:
0000
0000
0000
0100
0010
0100
0010
0100
0010
0100
0000
1101
0000
0001
0000
1010
,
0000
0100
0000
1100
0000
0100
0000
0110
0000
0001
0000
1001
0000
0010
0000
1100
,
0000
0001
0000
1010
0000
0100
0000
0011
0000
0001
0000
0101
0000
0010
0000
1100
,
0000
0001
0000
1001
0000
0100
0000
0011
0000
1000
0000
0101
0000
0101
0000
0101
,
0000
1010
0000
1010
0000
1010
0000
1001
0000
0001
0010
1100
0000
0010
0000
1001
,
0000
0100
0000
0011
0000
1000
0000
0101
0000
0010
0000
0110
0000
1000
0000
0101
,
0000
0010
0000
1010
0000
0001
0000
1001
0000
0100
0000
0011
0000
0010
0000
1010
,
0000
1000
0000
1001
0000
0010
0000
1100
0000
0010
0000
1100
0000
1100
0000
1100
,
0000
0011
0000
0011
0000
0011
0000
0110
0000
0100
0010
1001
0000
1001
0000
1001
,
0000
0110
0000
0110
0000
0110
0000
1010
0000
0100
0000
0001
0000
0001
0000
0001
,
0000
0001
0000
0001
0000
0001
0000
0001
0000
0100
0000
1000
0000
1000
0000
1000
,
0000
1000
0000
1000
0000
1000
0000
1000
0000
0010
0000
0100
0000
0100
0000
0100
,
0000
0100
0000
0100
0000
0100
0000
0100
0000
1000
0000
0010
0000
0010
0000
0010
,
0000
0010
0000
0010
0000
0010
0000
0010
0000
0001
0000
1000
0000
1000
0000
1000
,
0000
1000
0000
1000
0000
1000
0000
1000
0000
0100
0000
0010
0000
0010
0000
0010
,
0000
0010
0000
0010
0000
0010
0000
0010
0000
0100
0000
0001
0000
0001
0000
0001
,
0000
0001
0000
0001
0000
0001
0000
0001
0000
1000
0000
0100
0000
0100
0000
0100
,
0000
0100
0000
0100
0000
1100
0000
0101
0000
0000
0000
1001
0000
0000
0000
0010
,
0000
1100
0000
0000
0000
0101
0000
0101
0000
0000
0000
0011
0000
0000
0000
0110
,
0000
0110
0000
0000
0000
1000
0000
0001
0000
0100
0000
1100
0000
0000
0000
0100
,
0000
0101
0000
0000
0000
0100
0000
0011
0000
0000
0000
1010
0000
0000
0000
1000
,
0000
0000
0000
0001
0000
1100
0000
0011
0000
1000
0000
0101
0000
0010
0000
1100
,
0000
0100
0000
1001
0000
0010
0000
1100
0000
0001
0000
1010
0000
1000
0000
0011
,
0000
0100
0000
1001
0000
0010
0000
1100
0000
1000
0000
1001
0000
0100
0000
0011
,
0000
1000
0000
0101
0000
0010
0000
1100
0000
0001
0000
1001
0000
0010
0000
1100
,
0000
0100
0000
0101
0000
0010
0000
1010
0000
0100
0010
1001
0000
0010
0000
1100
,
0000
0010
0000
0101
0000
0001
0000
0110
0000
1000
0000
0101
0000
0010
0000
1100
,
0000
0001
0000
1001
0000
0010
0000
0110
0000
1000
0000
1100
0000
0010
0000
0101
,
0000
0010
0000
1001
0000
0100
0000
0011
0000
0100
0000
1011
0000
0100
0000
0100
,
0000
1011
0000
0100
0000
0100
0000
1001
0010
0001
0010
1101
0000
0010
0000
1100
,
0000
0001
0000
1010
0000
1000
0000
0101
0000
0010
0000
1001
0000
0010
0000
1100
,
0000
0001
0000
1010
0000
0100
0000
0011
0000
1000
0000
1001
0000
0010
0000
0110
,
0000
0100
0000
0011
0000
0001
0000
1010
0000
0001
0000
1100
0000
1100
0000
1100
,
0000
0110
0000
0110
0000
0110
0000
1001
0000
1000
0100
0011
0000
1000
0000
0101
,
0000
0010
0000
1100
0000
0001
0000
1001
0000
0010
0000
1100
0000
0010
0000
0110
,
0000
1000
0000
0101
0000
0010
0000
1001
0000
0010
0000
1100
0000
0001
0000
1010
,
0000
0100
0000
1001
0000
0100
0000
0110
0000
0001
0000
0101
0000
0101
0000
0101
,
0000
0011
0000
0011
0000
0011
0000
1001
0000
0001
0100
1010
0000
1010
0000
1010
,
0000
1100
0000
1100
0000
1100
0000
0110
0000
0000
0000
0102
0000
0100
0000
0010
,
0000
0010
0000
0100
0000
0100
0000
1000
0000
1000
0003
0120
0000
0100
0000
0001
,
0000
0001
0000
0100
0000
0100
0000
1000
0000
1000
0030
0201
0000
0001
0000
0010
,
0000
0010
0000
1000
0000
1000
0000
0010
0000
0010
0300
2100
0000
0100
0000
0010
,
0000
0010
0000
0001
0000
0001
0000
0010
0000
0010
3000
0201
0000
0001
0000
0010
,
0000
0010
0000
1000
0000
1000
0000
0010
0000
0010
0300
1002
0000
1000
0000
0100
,
0000
0100
0000
0010
0000
0010
0000
0100
0000
0100
0003
0021
0000
0001
0000
0100
,
0000
0100
0000
1000
0000
1000
0000
0100
0000
0100
0030
2001
0000
0001
0000
0110
,
0000
0010
0000
0101
0000
0100
0000
0011
0000
0010
3000
0101
0000
0000
0000
1000
,
0000
1001
0000
0000
0000
0101
0000
1010
0000
0000
0000
0110
0000
0000
0000
1100
,
0000
1100
0000
0000
0000
0001
0000
1010
0000
0100
0000
0011
0000
0000
0000
0001
,
0000
1001
0000
0000
0000
0010
0000
1100
0000
0000
0000
1010
0000
0000
0000
0001
,
0000
0000
0000
1000
0000
0101
0000
1010
0000
0100
0000
0011
0000
1000
0000
0101
,
0000
0010
0000
1001
0000
0010
0000
0110
0000
1000
0000
0011
0000
0100
0000
1010
,
0000
0001
0000
1001
0000
0100
0000
0011
0000
0100
0000
1010
0000
0010
0000
0011
,
0000
0010
0000
0110
0000
0010
0000
1100
0000
1000
0000
0101
0000
0010
0000
1100
,
0000
0001
0000
1001
0000
0010
0000
0101
0000
0010
0100
1001
0000
0010
0000
0110
,
0000
0001
0000
1010
0000
0100
0000
0011
0000
1000
0000
1001
0000
0010
0000
1100
,
0000
0001
0000
1010
0000
0100
0000
0011
0000
1000
0000
1001
0000
0010
0000
1001
,
0000
0100
0000
0011
0000
1000
0000
0101
0000
0010
0000
1001
0000
1001
0000
1001
,
0000
1100
0000
1100
0000
1100
0000
0110
0001
0010
0001
1010
0000
0100
0000
0010
,
0000
2001
0000
0100
0000
0010
0000
0001
0000
0001
0010
0101
0000
0010
0000
0100
,
3000
0012
0000
1000
0000
1100
0000
1010
0000
0110
0000
1100
0000
0100
0000
1000
,
0003
0120
0000
1000
0000
0100
0000
0001
0000
0100
0000
1001
0000
0100
0000
1000
,
0030
2010
0000
0001
0000
0010
0000
0101
0010
0101
0010
0101
3000
0101
0000
0011
,
0000
0011
0000
0110
0000
0110
0000
1100
0000
1100
0000
1010
0000
1010
0000
1001
,
0000
1001
0000
0101
0000
0101
0000
0110
0000
0110
0000
0011
0000
0011
0000
1100
,
0000
1100
0000
1001
0000
1001
0000
0101
0000
0101
0000
0011
0000
0011
0000
0101
,
0000
0101
0000
1001
0100
1001
0010
1100
0010
1100
0010
1201
0000
0000
0000
0000
,
0000
1010
0000
1011
0000
0000
0000
0000
0300
0001
0000
0001
0000
0010
0000
0000
,
0000
1000
0000
0101
0000
0010
0000
0001
0000
0010
0000
2100
0000
0010
0000
0001
,
0000
0010
0000
0100
0000
0010
0000
0001
0000
0010
3000
0102
0000
0010
0000
0100
,
0000
1000
0000
0100
0000
0010
0000
0100
0000
1000
0003
1200
0000
1000
0000
0010
,
0000
0010
0000
0001
0000
0001
0000
0010
0000
0010
0300
1002
0000
0010
0000
1000
,
0000
0100
0000
0010
0000
0100
1000
0100
1000
0100
1000
0113
0000
1001
0000
0101
,
0000
1010
0000
1001
0000
0110
0000
1100
0000
0011
0000
1010
0000
0110
0000
0011
,
0000
0110
0000
1100
0000
1001
0000
0101
0000
0011
0000
1010
0000
1010
0000
1010
,
0000
0101
0000
0101
0000
0101
0000
1100
0000
1100
0000
1001
0000
0011
0000
0011
,
0000
0011
0000
1000
0000
0100
0000
1010
0000
0100
0000
1201
0000
0000
0000
0001
,
0000
0000
0000
0001
0000
0000
0000
0001
0000
0000
0000
0312
0000
0000
0000
0010
,
0000
0000
0000
0010
0000
0000
0000
0010
0000
0000
0000
0123
0000
0000
0000
0100
,
0000
0000
0000
0100
0000
0000
0000
0100
0000
0000
0000
1230
0000
0000
0000
1000
,
0000
0000
0000
1000
0000
0000
0000
1000
0000
0000
0000
2301
0000
0000
0000
0001
,
0000
0000
0000
0001
0000
0000
0000
0001
0000
0000
0000
3102
0000
0000
0000
0100
,
0000
0000
0000
0100
0000
0000
0000
0100
0000
0000
0000
0213
0000
0000
0000
0010
,
0000
0000
0000
0010
0000
0000
0000
0010
0000
0000
0000
1310
0000
0000
0000
1010
,
0000
0000
0000
1010
0000
0000
0000
0111
0000
0000
0000
1000
0000
0000
0000
0000
,
0000
0101
0000
0000
0000
0011
0000
0011
0000
0000
0000
1100
0000
0000
0000
0001
,
0000
1010
0000
0000
0000
0100
0000
0011
0000
0100
0000
1100
0000
0000
0000
1000
,
0000
0101
0000
0000
0000
0010
0000
1001
0000
0100
0000
0011
0000
0000
0000
1100
,
0000
1010
0000
1000
0000
1010
0000
1001
0000
1000
0000
1000
0000
0100
0000
0010
,
0000
1001
0000
0010
0000
0101
0000
0101
0000
1000
0000
0110
0000
0000
0000
0101
,
0000
0101
0000
0000
0000
0110
0000
0110
0000
0010
0100
1001
0000
1001
0000
1001
,
0000
1001
0000
1001
0000
1001
0000
1001
0000
1001
0000
1011
0000
1011
0000
1011
,
0000
1011
0000
1011
0000
1011
0000
1011
0000
1011
0000
1011
0000
0010
0100
1011
,
0100
2022
0000
0000
0000
0000
0000
0000
0000
3133
0000
1111
0000
1000
0000
0101
,
0000
0010
0000
1001
0000
0010
0000
1100
0000
0001
0000
0110
0000
1000
0000
1100
,
0000
0100
0000
0101
0000
0010
0000
1001
0000
0100
0000
0011
0000
1000
0000
0101
,
0000
0010
0000
1100
0000
0001
0000
1010
0000
1000
0000
1001
0000
0100
0000
0011
,
0000
0100
0000
0110
0000
0001
0000
1010
0000
1000
0100
0011
0000
1000
0000
1001
,
0000
0010
0000
1100
0000
0001
0000
1010
0000
0100
0000
1001
0000
0010
0000
1100
,
0000
0001
0000
1010
0000
0100
0000
0011
0000
1000
0000
1001
0000
0010
0000
1100
,
0000
0001
0000
0101
0000
0100
0000
1010
0000
0010
0000
0011
0000
0011
0000
0011
,
0000
1010
0000
1010
0000
1010
0000
1001
0100
0010
0001
1010
0000
0001
0000
0110
,
0000
2001
0000
0010
0000
0100
0000
0001
0000
0010
0100
0011
0000
0100
0000
0010
,
3000
0102
0000
0010
0000
1100
0000
0110
0000
1010
0000
1100
0000
0010
0000
0100
,
0003
1020
0000
0001
0000
1000
0000
0100
0000
0001
0000
1100
0000
0001
0000
1000
,
0030
2001
0000
0100
0000
0001
0000
0110
0001
0110
0001
0110
3000
0101
0000
1010
,
0000
2100
0000
0001
0000
0010
0000
0100
0000
0010
0001
0110
0000
0001
0000
0100
,
3000
0102
0000
0010
0000
1010
0000
1100
0000
0110
0000
1010
0000
1000
0000
0100
,
0003
0021
0000
0100
0000
1000
0000
0100
0000
0001
0000
1100
0000
1100
0000
1100
,
0030
0011
0000
0011
0000
0011
0000
1001
0010
0100
1000
0110
0001
0010
0100
0010
,
0001
1000
0100
0001
0100
0010
1000
0100
0001
0010
0100
1000
0001
0100
0010
0001
,
0100
0010
0100
1000
0100
0001
0010
0100
1000
0010
0100
0001
1000
0010
0100
0001
,
1000
0010
0100
1000
0100
0010
0001
0100
0010
0100
0010
1100
0001
1100
0001
1100
,
0001
0110
1000
0110
1000
0110
1000
0100
0010
0001
0010
1101
0000
1011
0000
1101
,
0000
0010
0000
1100
0010
1001
0100
0011
0100
1010
0001
1110
0001
0010
0100
1000
,
0100
0010
0001
0100
0010
1000
0100
0010
0001
1000
0010
1000
0010
0100
0010
0001
,
0100
0010
1000
0001
0010
0100
1000
0001
0010
0100
0001
1000
0100
0010
1000
0001
,
0010
1000
0010
0001
0100
1000
0010
1000
0100
0001
0010
1100
0010
0101
0010
1001
,
0100
0011
1000
0110
0001
1010
0100
1001
0010
0101
1000
0111
1000
0001
0100
0001
,
1000
0010
0100
1000
0010
0100
0001
0100
1000
0001
0100
1001
0010
0100
1000
0010
,
0100
0001
0010
0100
1000
0100
0010
0001
0100
0010
1000
0011
0100
1000
0010
0100
,
0010
0001
0010
0100
1000
0100
0001
1000
0010
0100
0001
1010
0100
0011
1000
0101
,
1000
0110
0001
1100
0010
0101
1000
0110
0001
1100
0010
0101
0010
1100
0001
0110
,
1000
0101
0010
1100
0001
0110
1000
0101
0010
1100
0001
0110
1000
0101
0010
1100
,
0001
1010
0100
0011
1000
0101
0010
0101
0000
0222
0000
0000
0000
0000
0000
0000
,
0000
0333
0000
0000
0000
0000
0000
0000
0000
0000
0000
0000
0000
0000
0000
0000
;
